<?xml version="1.0" standalone="no"?>
<!DOCTYPE svg PUBLIC "-//W3C//DTD SVG 1.1//EN" "http://www.w3.org/Graphics/SVG/1.1/DTD/svg11.dtd" >
<svg xmlns="http://www.w3.org/2000/svg">
<metadata>Generated by IcoMoon</metadata>
<defs>
<font id="gob-uikit-icons" horiz-adv-x="1024">
<font-face units-per-em="1024" ascent="960" descent="-64" />
<missing-glyph horiz-adv-x="1024" />
<glyph unicode="&#x20;" horiz-adv-x="512" d="" />
<glyph unicode="&#xe900;" glyph-name="accessibility" d="M192 588.8v64h640v-64h-224v-160.458l32-351.542h-64l-32 288h-64l-32-288h-64l32 351.542v160.458h-224zM512 716.8c-35.346 0-64 28.654-64 64s28.654 64 64 64c35.346 0 64-28.654 64-64s-28.654-64-64-64z" />
<glyph unicode="&#xe901;" glyph-name="add--o" d="M480 492.8h-288v-64h288v-288h64v288h288v64h-288v288h-64v-288zM608 844.8v-288h288v-192h-288v-288h-192v288h-288v192h288v288h192z" />
<glyph unicode="&#xe902;" glyph-name="add" d="M480 492.8v288h64v-288h288v-64h-288v-288h-64v288h-288v64h288z" />
<glyph unicode="&#xe903;" glyph-name="alert--o" d="M480 556.8h64v-64h-64v64zM480 428.8h64v-192h-64v192zM952.64 108.8h-881.28l440.64 734.080 440.64-734.080zM184.64 172.8h654.72l-327.36 545.92-327.36-545.92z" />
<glyph unicode="&#xe904;" glyph-name="alert--round-o" d="M512 76.8c-212.077 0-384 171.923-384 384s171.923 384 384 384c212.077 0 384-171.923 384-384 0-101.843-40.457-199.515-112.471-271.529s-169.686-112.471-271.529-112.471zM512 780.8c-176.731 0-320-143.269-320-320s143.269-320 320-320c176.731 0 320 143.269 320 320 0 84.869-33.714 166.263-93.726 226.274s-141.405 93.726-226.274 93.726zM480 332.8h64v-64h-64v64zM480 684.8h64v-288h-64v288z" />
<glyph unicode="&#xe905;" glyph-name="alert--round" d="M512 844.8c-212.077 0-384-171.923-384-384s171.923-384 384-384c212.077 0 384 171.923 384 384s-171.923 384-384 384zM544 396.8h-64v288h64v-288zM544 268.8h-64v64h64v-64z" />
<glyph unicode="&#xe906;" glyph-name="alert--simple-o" d="M480 204.8h64v-64h-64v64zM480 780.8h64v-448h-64v448z" />
<glyph unicode="&#xe907;" glyph-name="alert" d="M512 842.88l-440.64-734.080h881.28l-440.64 734.080zM544 236.8h-64v192h64v-192zM480 492.8v64h64v-64h-64z" />
<glyph unicode="&#xe908;" glyph-name="arrow-back" d="M237.12 492.8l185.6 185.28-45.44 45.44-262.4-262.72 262.4-262.72 45.44 45.44-185.6 185.28h658.88v64z" />
<glyph unicode="&#xe909;" glyph-name="arrow-downward" d="M544 185.92v658.88h-64v-658.88l-185.28 185.6-45.44-45.44 262.72-262.4 262.72 262.4-45.44 45.44z" />
<glyph unicode="&#xe90a;" glyph-name="arrow-drop-down--ios" d="M512 223.68l-374.72 374.4 45.44 45.44 329.28-329.6 329.28 329.6 45.44-45.44z" />
<glyph unicode="&#xe90b;" glyph-name="arrow-drop-down" d="M512 268.8l-256 256h512z" />
<glyph unicode="&#xe90c;" glyph-name="arrow-drop-up--ios" d="M841.28 278.080l-329.28 329.6-329.28-329.6-45.44 45.44 374.72 374.4 374.72-374.4z" />
<glyph unicode="&#xe90d;" glyph-name="arrow-drop-up" d="M512 652.8l256-256h-512z" />
<glyph unicode="&#xe90e;" glyph-name="arrow-forward" d="M646.72 723.52l-45.44-45.44 185.6-185.28h-658.88v-64h658.88l-185.6-185.28 45.44-45.44 262.4 262.72z" />
<glyph unicode="&#xe90f;" glyph-name="arrow-left--ios" d="M649.28 86.080l-374.4 374.72 374.4 374.72 45.44-45.44-329.6-329.28 329.6-329.28z" />
<glyph unicode="&#xe910;" glyph-name="arrow-left" d="M320 460.8l256 256v-512z" />
<glyph unicode="&#xe911;" glyph-name="arrow-right--ios" d="M374.72 86.080l-45.44 45.44 329.6 329.28-329.6 329.28 45.44 45.44 374.4-374.72z" />
<glyph unicode="&#xe912;" glyph-name="arrow-right" d="M704 460.8l-256-256v512z" />
<glyph unicode="&#xe913;" glyph-name="arrow-upward" d="M774.72 595.52l-262.72 262.4-262.72-262.4 45.44-45.44 185.28 185.6v-658.88h64v658.88l185.28-185.6z" />
<glyph unicode="&#xe914;" glyph-name="asterisk" d="M316.439 364.8h-156.439v192h156.439l-103.121 103.121 99.561 99.561 103.121-103.121v156.439h192v-156.439l103.121 103.121 99.561-99.561-103.121-103.121h156.439v-192h-156.439l103.121-103.121-99.561-99.561-103.121 103.121v-156.439h-192v156.439l-103.121-103.121-99.561 99.561 103.121 103.121z" />
<glyph unicode="&#xe915;" glyph-name="attachment" d="M416 684.8v-288c0-53.019 42.981-96 96-96s96 42.981 96 96c0 0-28.75 0-64 0 0-17.673-14.327-32-32-32s-32 14.327-32 32v288c0 53.019 42.981 96 96 96s96-42.981 96-96v-352c0-88.366-71.634-160-160-160s-160 71.634-160 160c-38.645 0-64 0-64 0 0-123.712 100.288-224 224-224s224 100.288 224 224v352c0 88.366-71.634 160-160 160s-160-71.634-160-160zM352 652.8h-64v-320h64v320zM608 652.8h-64v-256h64v256z" />
<glyph unicode="&#xe916;" glyph-name="bell--o" d="M512 76.8c-70.692 0-128 57.308-128 128h64c0-35.346 28.654-64 64-64s64 28.654 64 64h64c0-70.692-57.308-128-128-128zM800 268.8h-608v96c-2.035 41.314 24.377 78.687 64 90.56v165.44c0 123.712 100.288 224 224 224h64c123.712 0 224-100.288 224-224v-166.080c39.383-11.816 65.734-48.839 64-89.92 0-32 0-64 0-64v-32h-32zM256 332.8h512v32c0.797 8.707-2.318 17.317-8.5 23.5s-14.793 9.297-23.5 8.5h-32v224c0 88.366-71.634 160-160 160h-64c-88.366 0-160-71.634-160-160v-224h-32c-8.736 0.917-17.419-2.159-23.63-8.37s-9.287-14.894-8.37-23.63v-32z" />
<glyph unicode="&#xe917;" glyph-name="bell" d="M640 204.8c0-70.692-57.308-128-128-128s-128 57.308-128 128h256zM800 268.8h-608v96c-2.035 41.314 24.377 78.687 64 90.56v165.44c0 123.712 100.288 224 224 224h64c123.712 0 224-100.288 224-224v-166.080c39.383-11.816 65.734-48.839 64-89.92 0-32 0-64 0-64v-32h-32z" />
<glyph unicode="&#xe918;" glyph-name="bullet" d="M768 460.8c0-141.385-114.615-256-256-256s-256 114.615-256 256c0 141.385 114.615 256 256 256s256-114.615 256-256z" />
<glyph unicode="&#xe919;" glyph-name="calendar--o" d="M767.591 780.586h-31.249v64.214h-64.358v-64.214h-320.035v64.214h-63.499v-64.214h-31.952c-35.216 0-71.666-8.269-96.467-33.093s-34.967-59.62-31.307-94.534v-447.629c-3.66-34.915 8.62-69.618 33.421-94.442s59.471-37.116 94.352-33.452h511.093c34.882-3.664 69.552 8.628 94.352 33.452s37.081 59.527 33.421 94.442v447.629c2.44 23.276-8.7 54.788-33.421 94.534-39.232 22.062-70.683 33.093-94.352 33.093zM832.045 204.8c0-46.080-17.92-64-64-64h-512c-46.080 0-64 17.92-64 64v448c0 37.889 26.719 64 64 64h32.178v-32.196h63.662v32.196h320.090v-32.196h63.919v32.196h32.151c46.080 0 64-17.92 64-64v-448zM288 588.8h64v-64h-64v64zM480 588.8h64v-64h-64v64zM672 588.8h64v-64h-64v64zM288 460.8h64v-64h-64v64zM480 460.8h64v-64h-64v64zM672 460.8h64v-64h-64v64zM288 332.8h64v-64h-64v64zM480 332.8h64v-64h-64v64zM672 332.8h64v-64h-64v64z" />
<glyph unicode="&#xe91a;" glyph-name="calendar" d="M767.591 780.586h-31.249v64.214h-64.358v-64.214h-320.035v64.214h-63.499v-64.214h-31.952c-35.216 0-71.666-8.269-96.467-33.093s-34.967-59.62-31.307-94.534v-447.629c-3.66-34.915 8.62-69.618 33.421-94.442s59.471-37.116 94.352-33.452h511.093c34.882-3.664 69.552 8.628 94.352 33.452s37.081 59.527 33.421 94.442v447.629c2.44 23.276-8.7 54.788-33.421 94.534-39.232 22.062-70.683 33.093-94.352 33.093zM288 588.8h64v-64h-64v64zM480 588.8h64v-64h-64v64zM672 588.8h64v-64h-64v64zM288 460.8h64v-64h-64v64zM480 460.8h64v-64h-64v64zM672 460.8h64v-64h-64v64zM288 332.8h64v-64h-64v64zM480 332.8h64v-64h-64v64zM672 332.8h64v-64h-64v64z" />
<glyph unicode="&#xe91b;" glyph-name="callcenter" d="M890.88 583.68c-30.591 185.45-190.924 321.502-378.88 321.502s-348.289-136.052-378.88-321.502c-39.466-13.296-66.847-49.297-69.12-90.88v-64c2.568-51.918 44.082-93.432 96-96h55.36c47.36-134.72 161.92-256 296.64-256s249.28 121.28 296.64 256h55.36c51.918 2.568 93.432 44.082 96 96v64c-2.273 41.583-29.654 77.584-69.12 90.88zM512 844.8c152.086 0.031 283.183-106.987 313.6-256h-20.48c-50.986 116.414-166.030 191.623-293.12 191.623s-242.134-75.209-293.12-191.623h-20.48c30.417 149.013 161.514 256.031 313.6 256v0zM512 140.8c-83.52 0-160 64-206.72 147.52 64.94-30.342 135.136-47.836 206.72-51.52 17.673 0 32 14.327 32 32s-14.327 32-32 32c-87.68 0-194.56 50.24-243.84 76.16-7.886 27.255-11.978 55.467-12.16 83.84 0 141.385 114.615 256 256 256s256-114.615 256-256c0-144-118.080-320-256-320z" />
<glyph unicode="&#xe91c;" glyph-name="cc" d="M511.181 908.8c125.316 0 232.012-43.751 320.003-131.21 42.113-42.127 74.131-90.273 96-144.398 21.854-54.139 32.817-111.596 32.817-172.399 0-61.335-10.822-118.806-32.397-172.385-21.602-53.593-53.481-100.942-95.593-142.004-43.723-43.191-93.325-76.273-148.808-99.206-55.455-22.932-112.8-34.399-171.993-34.399s-115.866 11.312-170.005 34.007c-54.125 22.652-102.664 55.455-145.602 98.38s-75.601 91.337-98.002 145.21c-22.4 53.873-33.601 110.658-33.601 170.397 0 59.207 11.326 116.132 33.993 170.803s55.609 103.602 98.8 146.806c85.331 86.913 190.123 130.398 314.389 130.398zM512.856 844.8c-107.081 0-197.164-37.458-270.236-112.345-36.821-37.458-65.121-79.508-84.915-126.181-19.823-46.672-29.706-95.442-29.706-146.311 0-50.311 9.882-98.802 29.706-145.445 19.809-46.702 48.094-88.341 84.915-124.948 36.806-36.622 78.342-64.543 124.664-83.851 46.279-19.279 94.812-28.919 145.571-28.919 50.188 0 98.824 9.757 146.010 29.33 47.128 19.587 89.615 47.787 127.563 84.673 73.056 71.541 109.57 161.247 109.57 269.146 0 51.983-9.487 101.165-28.447 147.558-18.93 46.393-46.557 87.74-82.778 124.097-75.34 75.459-165.951 113.196-271.919 113.196zM479.201 521.786l-61.164-32.283c-6.534 13.774-14.538 23.448-24.041 28.967-9.516 5.504-18.348 8.27-26.509 8.27-40.748 0-61.15-27.301-61.15-81.932 0-24.824 5.165-44.666 15.48-59.57 10.33-14.903 25.553-22.362 45.67-22.362 26.637 0 45.385 13.252 56.271 39.728l56.242-28.967c-11.956-22.637-28.535-40.423-49.736-53.385-21.173-12.977-44.557-19.451-70.11-19.451-40.762 0-73.663 12.673-98.659 38.077-24.996 25.375-37.495 60.685-37.495 105.916 0 44.145 12.641 79.166 37.908 105.105 25.268 25.925 57.198 38.902 95.806 38.902 56.542 0.029 97.018-22.319 121.487-67.014zM766.402 521.786l-60.344-32.283c-6.521 13.774-14.554 23.448-24.058 28.967-9.532 5.504-18.65 8.27-27.311 8.27-40.767 0-61.171-27.301-61.171-81.932 0-24.824 5.18-44.666 15.496-59.57s25.527-22.362 45.675-22.362c26.612 0 45.375 13.252 56.234 39.728l57.076-28.967c-12.485-22.637-29.351-40.423-50.527-53.385-21.204-12.977-44.305-19.451-69.304-19.451-41.323 0-74.327 12.673-99.041 38.077-24.771 25.375-37.128 60.685-37.128 105.916 0 44.145 12.628 79.166 37.927 105.105 25.256 25.925 57.19 38.902 95.788 38.902 56.534 0.029 96.787-22.319 120.687-67.014z" />
<glyph unicode="&#xe91d;" glyph-name="check--o" d="M89.28 422.080l109.44 109.44 192.64-192.96 441.6 441.28 109.12-109.12-550.72-550.72-302.080 302.080zM391.36 184l486.72 486.72-45.12 45.12-441.6-441.28-192.64 192.96-45.44-45.44 238.080-238.080z" />
<glyph unicode="&#xe91e;" glyph-name="check" d="M391.36 184l-238.080 238.080 45.44 45.44 192.64-192.96 441.6 441.28 45.12-45.12z" />
<glyph unicode="&#xe91f;" glyph-name="checkbox--mixed" d="M224 844.8h576c53.019 0 96-42.981 96-96v-576c0-53.019-42.981-96-96-96h-576c-53.019 0-96 42.981-96 96v576c0 53.019 42.981 96 96 96zM256 492.8v-64h512v64h-512z" />
<glyph unicode="&#xe920;" glyph-name="checkbox--selected" d="M224 844.8h576c53.019 0 96-42.981 96-96v-576c0-53.019-42.981-96-96-96h-576c-53.019 0-96 42.981-96 96v576c0 53.019 42.981 96 96 96zM224.446 440.857l203.525-203.525 371.411 371.411-45.255 45.255-326.156-326.156-158.27 158.27-45.255-45.255z" />
<glyph unicode="&#xe921;" glyph-name="checkbox" d="M224 844.8h576c53.019 0 96-42.981 96-96v-576c0-53.019-42.981-96-96-96h-576c-53.019 0-96 42.981-96 96v576c0 53.019 42.981 96 96 96zM256 780.8c-35.346 0-64-28.654-64-64v-512c0-35.346 28.654-64 64-64h512c35.346 0 64 28.654 64 64v512c0 35.346-28.654 64-64 64h-512z" />
<glyph unicode="&#xe922;" glyph-name="chileatiende" d="M416 716.8c88.8-1.053 160.182-73.434 160-162.24-0.083-42.205-17.038-82.624-47.091-112.256s-70.707-46.016-112.909-45.504c-88.8 1.053-160.182 73.434-160 162.24 0.083 42.205 17.038 82.624 47.091 112.256s70.707 46.016 112.909 45.504zM416 332.8c224 0 288-128 288-178.24v-77.76h-576v77.76c0 50.24 64 178.24 288 178.24zM638.080 524.8v0c-3.84 4.16-7.68 4.16-3.84 8.32l16 106.56-74.24 77.12c0 0-4.16 3.84 0 3.84-0.090 1.073 0.275 2.134 1.005 2.925s1.759 1.239 2.835 1.235l103.36 16.32 46.4 99.52 4.16 4.16c3.84 0 3.84 0 3.84-4.16l47.68-98.56 103.68-16.32c3.84 0 3.84 0 3.84-4.16v-4.8l-71.68-78.080 16-106.56c0-4.16 0-4.16-3.84-4.16h-8l-96 49.28-91.2-52.48c4.16 4.16 4.16 0 0 0z" />
<glyph unicode="&#xe923;" glyph-name="claveunica" d="M489.28 376.32c-6.361 5.923-9.669 14.426-8.983 23.090s5.29 16.541 12.503 21.39c6.060 5.699 14.249 8.568 22.541 7.897s15.913-4.818 20.979-11.417c11.061-13.335 9.501-33.051-3.52-44.48-6.060-5.699-14.249-8.568-22.541-7.897s-15.913 4.818-20.979 11.417v0zM666.266 743.302c133.631-60.994 227.386-193.256 229.734-349.382 0-212.077-171.923-384-384-384s-384 171.923-384 384c-2.156 153.992 90.127 293.621 232.64 352 15.68 3.84 27.2 3.84 34.88-15.68 7.294-15.911 0.451-34.73-15.36-42.24-145.698-64.729-221.524-226.835-177.821-380.157s193.602-251.088 351.532-229.271c157.93 21.817 275.71 156.559 276.209 315.988 0.534 131.185-71.465 243.415-188.903 293.44-7.663 2.386-13.86 8.072-16.894 15.503s-2.589 15.829 1.214 22.897c2.465 7.682 8.212 13.874 15.69 16.902s17.964 3.803 25.079 0zM320 404.16c-0.673 95.187 66.562 177.347 160 195.52v273.6c1.211 17.798 14.425 32.465 32 35.52h141.12c16.919-1.017 30.111-15.050 30.080-32-0.703-16.65-13.505-30.269-30.080-32h-109.12v-245.76c94.74-15.963 163.097-99.495 160-195.52 1.082-107.588-84.439-196.101-192-198.72-107.813 2.621-193.435 91.524-192 199.36zM640 400.32c0.557 71.768-56.265 130.863-128 133.12-67.473-7.431-118.548-64.439-118.548-132.32s51.075-124.889 118.548-132.32c71.113 2.239 127.691 60.373 128 131.52z" />
<glyph unicode="&#xe924;" glyph-name="clock--o" d="M512 76.8c-212.077 0-384 171.923-384 384s171.923 384 384 384c212.077 0 384-171.923 384-384 0-101.843-40.457-199.515-112.471-271.529s-169.686-112.471-271.529-112.471zM512 780.8c-176.731 0-320-143.269-320-320s143.269-320 320-320c176.731 0 320 143.269 320 320 0 84.869-33.714 166.263-93.726 226.274s-141.405 93.726-226.274 93.726zM655.36 337.28l-175.36 105.28v274.24h64v-237.76l144.64-86.72-33.28-55.040z" />
<glyph unicode="&#xe925;" glyph-name="clock" d="M512 844.8c-212.077 0-384-171.923-384-384s171.923-384 384-384c212.077 0 384 171.923 384 384s-171.923 384-384 384zM655.68 337.28l-175.68 105.28v274.24h64v-237.76l144.32-86.72-32.64-55.040z" />
<glyph unicode="&#xe926;" glyph-name="close-small" d="M790.72 694.080l-45.44 45.44-233.28-233.6-233.28 233.6-45.44-45.44 233.6-233.28-233.6-233.28 45.44-45.44 233.28 233.6 233.28-233.6 45.44 45.44-233.6 233.28 201.6 201.28z" />
<glyph unicode="&#xe927;" glyph-name="close" d="M886.72 790.080l-45.44 45.44-329.28-329.6-329.28 329.6-45.44-45.44 329.6-329.28-329.6-329.28 45.44-45.44 329.28 329.6 329.28-329.6 45.44 45.44-329.6 329.28z" />
<glyph unicode="&#xe928;" glyph-name="cloud-download" d="M800.518 333.729h-191.379v63.793h191.379c52.848 0 95.689 42.842 95.689 95.689s-42.842 95.689-95.689 95.689c-9.779-0.173-19.468-1.895-28.707-5.103-11.406-3.705-23.927-0.698-32.407 7.782s-11.487 21.001-7.782 32.407c3.208 9.239 4.931 18.928 5.103 28.707 0 52.848-42.842 95.689-95.689 95.689-18.743 0.063-37.074-5.492-52.629-15.948-8.512-5.583-19.177-6.768-28.707-3.19-9.648 3.524-17.009 11.478-19.776 21.371-18.073 60.151-77.235 98.202-139.464 89.698s-109.013-61.033-110.285-123.827c0.060-8.672 0.914-17.32 2.552-25.836 1.95-9.485-0.514-19.342-6.698-26.793-6.283-7.553-15.697-11.789-25.517-11.483h-2.233c-70.464 0-127.586-57.122-127.586-127.586s57.122-127.586 127.586-127.586h157.924v-63.793h-157.924c-100.598-1.519-185.196 75.113-193.6 175.371s62.256 189.905 161.704 205.154v2.552c0.658 88.009 61.256 164.223 146.854 184.697s174.123-20.072 214.533-98.258c48.804 17.294 102.966 9.819 145.261-20.048s67.459-78.407 67.489-130.184c88.080 0 159.482-71.403 159.482-159.482s-71.403-159.482-159.482-159.482zM665.28 275.52l45.44-45.44-198.72-198.4-198.72 198.4 45.44 45.44 121.28-121.6v434.88h64v-434.88l121.28 121.6z" />
<glyph unicode="&#xe929;" glyph-name="cloud-upload" d="M800.518 332.8h-191.379v64h191.379c52.848 0 95.689 42.981 95.689 96s-42.842 96-95.689 96c-9.779-0.173-19.468-1.902-28.707-5.12-11.406-3.717-23.927-0.7-32.407 7.808s-11.487 21.069-7.782 32.512c3.208 9.269 4.931 18.99 5.103 28.8 0 53.019-42.842 96-95.689 96-18.743 0.063-37.074-5.51-52.629-16-8.512-5.601-19.177-6.79-28.707-3.2-9.648 3.535-17.009 11.516-19.776 21.44-18.073 60.346-77.235 98.521-139.464 89.989s-109.013-61.231-110.285-124.229c0.060-8.7 0.914-17.376 2.552-25.92 1.94-9.527-0.542-19.422-6.747-26.892s-15.459-11.704-25.149-11.508h-2.552c-70.464 0-127.586-57.308-127.586-128s57.122-128 127.586-128h157.871v-64h-157.871c-100.598-1.524-185.196 75.357-193.6 175.94s62.256 190.521 161.704 205.82v2.56c0.658 88.295 61.256 164.757 146.854 185.297s174.123-20.137 214.533-98.577c48.804 17.35 102.966 9.85 145.261-20.113s67.459-78.662 67.489-130.607c88.080 0 159.482-71.634 159.482-160s-71.403-160-159.482-160zM512 684.8l166.72-166.4-45.44-45.44-89.28 89.6v-452.135h-64v452.135l-89.28-89.6-45.44 45.44 166.72 166.4z" />
<glyph unicode="&#xe92a;" glyph-name="code" d="M140.704 460.8l186.016-185.28-45.44-45.44-230.4 230.72 230.4 230.72 45.44-45.44-186.016-185.28zM876.896 460.8l-186.016 185.28 45.44 45.44 230.4-230.72-230.4-230.72-45.44 45.44 186.016 185.28zM412.174 188.44l147.010 559.483 61.635-16.515-146.585-559.718-62.060 16.75z" />
<glyph unicode="&#xe92b;" glyph-name="comment--o" d="M128 716.8c-3.667 34.944 8.636 69.675 33.48 94.52s59.576 37.147 94.52 33.48h512c34.944 3.667 69.675-8.636 94.52-33.48s37.147-59.576 33.48-94.52v-320c3.667-34.944-8.636-69.675-33.48-94.52s-59.576-37.147-94.52-33.48h-403.52l-236.48-236.48v684.48zM192 187.2l145.92 145.6h430.080c46.080 0 64 17.92 64 64v320c0 46.080-17.92 64-64 64h-512c-46.080 0-64-17.92-64-64v-529.6zM320 652.8h384v-64h-384v64zM320 524.8h384v-64h-384v64z" />
<glyph unicode="&#xe92c;" glyph-name="comment" d="M768 844.8h-512c-34.944 3.667-69.675-8.636-94.52-33.48s-37.147-59.576-33.48-94.52v-684.48l236.48 236.48h403.52c34.944-3.667 69.675 8.636 94.52 33.48s37.147 59.576 33.48 94.52v320c3.667 34.944-8.636 69.675-33.48 94.52s-59.576 37.147-94.52 33.48zM704 460.8h-384v64h384v-64zM704 588.8h-384v64h384v-64z" />
<glyph unicode="&#xe92d;" glyph-name="contranst" d="M768 844.8h-512c-34.944 3.667-69.675-8.636-94.52-33.48s-37.147-59.576-33.48-94.52v-512c-3.667-34.944 8.636-69.675 33.48-94.52s59.576-37.147 94.52-33.48h512c34.944-3.667 69.675 8.636 94.52 33.48s37.147 59.576 33.48 94.52v512c3.667 34.944-8.636 69.675-33.48 94.52s-59.576 37.147-94.52 33.48zM832 204.8c0-46.080-17.92-64-64-64h-256v640h256c46.080 0 64-17.92 64-64v-512z" />
<glyph unicode="&#xe92e;" glyph-name="doc--o" d="M621.12 876.8l210.88-210.88v-621.12h-640v832h429.12zM640 767.68v-82.88h82.88l-82.88 82.88zM768 108.8v512h-192v192h-320v-704h512zM320 524.8h384v-64h-384v64zM320 396.8h384v-64h-384v64zM320 268.8h384v-64h-384v64z" />
<glyph unicode="&#xe92f;" glyph-name="doc-pdf--o" d="M685.12 876.8l210.88-210.88v-621.12h-640v128h-128v384h128v320h429.12zM704 767.68v-82.88h82.88l-82.88 82.88zM256 236.8h448v256h-512v-256h64zM832 108.8v512h-192v192h-320v-256h448v-384h-448v-64h512zM320 300.8h-64v128h32c35.346 0 64-28.654 64-64v-32h-32v-32zM384 300.8v128h32c35.346 0 64-28.654 64-64s-28.654-64-64-64h-32zM640 428.8v-64h-32v-32h-32v-32h-64v128h128z" />
<glyph unicode="&#xe930;" glyph-name="doc-pdf" d="M685.12 876.8l210.88-210.88v-621.12h-640v128h-128v384h128v320h429.12zM704 767.68v-82.88h82.88l-82.88 82.88zM256 236.8h448v256h-512v-256h64zM320 300.8h-64v128h32c35.346 0 64-28.654 64-64v-32h-32v-32zM384 300.8v128h32c35.346 0 64-28.654 64-64s-28.654-64-64-64h-32zM512 428.8h128v-64h-32v-32h-32v-32h-64v128z" />
<glyph unicode="&#xe931;" glyph-name="doc" d="M621.12 876.8h-429.12v-832h640v621.12l-210.88 210.88zM704 204.8h-384v64h384v-64zM704 332.8h-384v64h384v-64zM704 460.8h-384v64h384v-64zM640 684.8v82.88l82.88-82.88h-82.88z" />
<glyph unicode="&#xe932;" glyph-name="dont-see" d="M245.842 240.082c-110.379 85.936-173.581 197.618-177.682 205.038l-8.64 15.68 8.64 15.68c6.72 12.16 172.16 304.32 443.84 304.32 80.594 0 151.839-25.711 212.365-62.195l116.915 116.915 45.44-45.44-704-704-45.44 45.44 108.562 108.562zM677.184 671.424c-48.697 27.086-104.168 45.376-165.184 45.376-200.96 0-341.76-198.4-378.56-256 21.174-33.142 76.78-112.899 158.465-174.655l63.514 63.514c-22.304 31.366-35.419 69.722-35.419 111.141 0 106.039 85.961 192 192 192 41.419 0 79.775-13.115 111.141-35.419l54.043 54.043zM356.872 173.512l49.651 49.651c32.896-11.517 68.149-18.363 105.477-18.363 200.96 0 341.76 198.4 378.56 256-16.826 26.336-55.393 82.106-111.511 134.889l45.711 45.711c81.467-77.081 127.596-158.617 131.080-164.92l8.64-15.68-8.64-15.68c-6.72-12.16-172.16-304.32-443.84-304.32-56.454 0-108.32 12.615-155.128 32.712zM696.718 513.358c4.743-16.703 7.282-34.334 7.282-52.558 0-106.039-85.961-192-192-192-18.224 0-35.854 2.539-52.558 7.282l237.275 237.275z" />
<glyph unicode="&#xe933;" glyph-name="download" d="M800 76.8h-576c-51.918 2.568-93.432 44.082-96 96v96h64v-96c2.284-16.636 15.364-29.716 32-32h576c16.636 2.284 29.716 15.364 32 32v96h64v-96c-2.568-51.918-44.082-93.432-96-96zM544 345.92v497.83h-64v-497.83l-185.28 185.6-45.44-45.44 262.72-262.4 262.72 262.4-45.44 45.44-185.28-185.6z" />
<glyph unicode="&#xe934;" glyph-name="edit--o" d="M768.213 76.799h-511.152c-34.886-3.661-69.56 8.621-94.363 33.425s-37.085 59.478-33.425 94.363v511.152c-3.661 34.886 8.621 69.56 33.425 94.363s59.478 38.042 94.363 34.381h318.886v-64.098h-318.886c-46.004 0-63.894-18.642-63.894-64.646v-511.152c0-46.004 17.89-63.894 63.894-63.894h511.152c46.004 0 63.894 17.89 63.894 63.894v319.47h63.894v-319.47c3.661-34.886-8.621-69.56-33.425-94.363s-59.478-37.085-94.363-33.425zM493.12 319.68h-109.12v109.12l480 480 109.12-109.12-480-480zM448 383.68h18.88l416 416-18.88 18.88-416-416v-18.88z" />
<glyph unicode="&#xe935;" glyph-name="edit" d="M768.213 76.799h-511.152c-34.886-3.661-69.56 8.621-94.363 33.425s-37.085 59.478-33.425 94.363v511.152c-3.661 34.886 8.621 69.56 33.425 94.363s59.478 38.042 94.363 34.381h318.886v-64.098h-318.886c-46.004 0-63.894-18.642-63.894-64.646v-511.152c0-46.004 17.89-63.894 63.894-63.894h511.152c46.004 0 63.894 17.89 63.894 63.894v319.47h63.894v-319.47c3.661-34.886-8.621-69.56-33.425-94.363s-59.478-37.085-94.363-33.425zM493.12 319.68h-109.12v109.12l480 480 109.12-109.12-480-480z" />
<glyph unicode="&#xe936;" glyph-name="error" d="M512 844.8c212.077 0 384-171.923 384-384s-171.923-384-384-384c-212.077 0-384 171.923-384 384s171.923 384 384 384zM694.72 598.080l-45.44 45.44-137.28-137.6-137.28 137.6-45.44-45.44 137.6-137.28-137.6-137.28 45.44-45.44 137.28 137.6 137.28-137.6 45.44 45.44-137.6 137.28 137.6 137.28z" />
<glyph unicode="&#xe937;" glyph-name="facebook" d="M854.4 844.8h-684.8c-22.831-0.343-41.257-18.769-41.6-41.6v-681.6c-0.432-11.459 3.709-22.621 11.513-31.024s18.627-13.359 30.087-13.776h368v297.6h-99.2v115.2h99.2v86.4c0 99.2 60.8 153.6 150.4 153.6 41.6 0 80-3.2 89.6-3.2v-105.6h-60.8c-48 0-57.6-22.4-57.6-57.6v-73.6h115.2l-16-115.2h-99.2v-297.6h195.2c22.831 0.343 41.257 18.769 41.6 41.6v684.8c-0.343 22.831-18.769 41.257-41.6 41.6z" />
<glyph unicode="&#xe938;" glyph-name="faq--o" d="M512 76.8c-212.077 0-384 171.923-384 384s171.923 384 384 384c212.077 0 384-171.923 384-384 0-101.843-40.457-199.515-112.471-271.529s-169.686-112.471-271.529-112.471zM512 780.8c-176.731 0-320-143.269-320-320s143.269-320 320-320c176.731 0 320 143.269 320 320 0 84.869-33.714 166.263-93.726 226.274s-141.405 93.726-226.274 93.726zM480 268.8h64v-64h-64v64zM544 332.8h-64v32c0 44.16 6.4 87.040 81.6 124.48 38.4 19.2 46.4 23.36 46.4 67.52 3.258 26.325-5.804 52.683-24.561 71.439s-45.114 27.818-71.439 24.561c-26.325 3.258-52.683-5.804-71.439-24.561s-27.818-45.114-24.561-71.439h-64c0 118.080 82.56 160 160 160s160-41.92 160-160c0-83.84-39.68-103.68-81.6-124.48s-46.4-39.040-46.4-67.52v-32z" />
<glyph unicode="&#xe939;" glyph-name="faq" d="M512 844.8c-212.077 0-384-171.923-384-384s171.923-384 384-384c212.077 0 384 171.923 384 384 0 101.843-40.457 199.515-112.471 271.529s-169.686 112.471-271.529 112.471zM544 204.8h-64v64h64v-64zM590.4 432.32c-46.4-23.36-46.4-39.040-46.4-67.52v-32h-64v32c0 44.16 6.4 87.040 81.6 124.48 38.4 19.2 46.4 23.36 46.4 67.52 3.258 26.325-5.804 52.683-24.561 71.439s-45.114 27.818-71.439 24.561c-26.325 3.258-52.683-5.804-71.439-24.561s-27.818-45.114-24.561-71.439h-64c0 118.080 82.56 160 160 160s160-41.92 160-160c0-83.84-39.68-103.68-81.6-124.48z" />
<glyph unicode="&#xe93a;" glyph-name="favorite--o" d="M512 65.6l-21.44 19.52c-60.48 55.68-362.56 336.32-362.56 471.68 0 155.52 88 256 224 256 73.28 0 128-57.28 160-99.84 32 42.56 86.72 99.84 160 99.84 136 0 224-100.48 224-256 0-135.36-302.080-416-362.56-471.68l-21.44-19.52zM352 748.8c-144.32 0-160-134.4-160-192 0-78.72 187.84-281.28 320-404.48 132.16 123.2 320 326.080 320 404.48 0 57.6-15.68 192-160 192-74.24 0-130.88-109.12-131.52-110.4s-14.080-17.6-28.48-17.6c-14.4 0-28.48 17.6-28.48 17.6-15.68 30.72-69.44 110.4-131.52 110.4z" />
<glyph unicode="&#xe93b;" glyph-name="favorite" d="M512 65.6l-21.44 19.52c-60.48 55.68-362.56 336.32-362.56 471.68 0 155.52 88 256 224 256 73.28 0 128-57.28 160-99.84 32 42.56 86.72 99.84 160 99.84 136 0 224-100.48 224-256 0-135.36-302.080-416-362.56-471.68l-21.44-19.52z" />
<glyph unicode="&#xe93c;" glyph-name="filter--o" d="M416 88.96v360.96l-256 330.88h704l-256-330.88v-264.96l-192-96zM288 716.8l192-245.12v-279.040l64 32v247.040l192 245.12h-448z" />
<glyph unicode="&#xe93d;" glyph-name="filter" d="M416 88.96v360.96l-256 330.88h704l-256-330.88v-264.96z" />
<glyph unicode="&#xe93e;" glyph-name="fontsize-less" d="M834.88 95.68l-77.12 173.12h-299.52l-77.12-173.12-58.24 26.24 285.12 641.6 285.12-641.6-58.24-26.24zM486.72 332.8h242.56l-121.28 273.28-121.28-273.28zM96 652.8h320v-64h-320v64z" />
<glyph unicode="&#xe93f;" glyph-name="fontsize-plus" d="M834.88 95.68l-77.12 173.12h-299.52l-77.12-173.12-58.24 26.24 285.12 641.6 285.12-641.6-58.24-26.24zM486.72 332.8h242.56l-121.28 273.28-121.28-273.28zM416 652.8v-64h-128v-128h-64v128h-128v64h128v128h64v-128h128z" />
<glyph unicode="&#xe940;" glyph-name="fullscreen-exit" d="M384 588.8h-256v64h192v192h64v-256zM640 332.8h256v-64h-192v-192h-64v256zM640 588.8v256h64v-192h192v-64h-256zM384 332.8v-256h-64v192h-192v64h256z" />
<glyph unicode="&#xe941;" glyph-name="fullscreen" d="M128 844.8h256v-64h-192v-192h-64v256zM896 76.8h-256v64h192v192h64v-256zM896 844.8v-256h-64v192h-192v64h256zM128 76.8v256h64v-192h192v-64h-256z" />
<glyph unicode="&#xe942;" glyph-name="home--o" d="M512 844.8l-448-448h128v-320h256v256h128v-256h256v320h128l-448 448zM768 460.8v-320h-128v256h-256v-256h-128v320h-32l288 288 288-288h-32z" />
<glyph unicode="&#xe943;" glyph-name="home" d="M832 76.8h-256v256h-128v-256h-256v320h-128l448 448 448-448h-128z" />
<glyph unicode="&#xe944;" glyph-name="image--o" d="M767.576 77.436h-511.152c-34.886-3.661-69.56 8.621-94.363 33.425s-37.085 59.478-33.425 94.363v511.152c-3.661 34.886 8.621 69.56 33.425 94.363s59.478 37.085 94.363 33.425h511.152c34.886 3.661 69.56-8.621 94.363-33.425s37.085-59.478 33.425-94.363v-511.152c3.661-34.886-8.621-69.56-33.425-94.363s-59.478-37.085-94.363-33.425zM256 780.8c-46.080 0-64-17.92-64-64v-512c0-46.080 17.92-64 64-64h512c46.080 0 64 17.92 64 64v512c0 46.080-17.92 64-64 64h-512zM768 204.8h-557.12l269.12 269.12 64-64 128 128 96-96v-237.12zM365.12 268.8h338.88v146.88l-32 32-128-128-64 64-114.88-114.88z" />
<glyph unicode="&#xe945;" glyph-name="image" d="M767.576 844.164h-511.152c-34.886 3.661-69.56-8.621-94.363-33.425s-37.085-59.478-33.425-94.363v-511.152c-3.661-34.886 8.621-69.56 33.425-94.363s59.478-37.085 94.363-33.425h511.152c34.886-3.661 69.56 8.621 94.363 33.425s37.085 59.478 33.425 94.363v511.152c3.661 34.886-8.621 69.56-33.425 94.363s-59.478 37.085-94.363 33.425zM768 204.8h-544l262.782 258.521 62.493-61.479 124.986 122.959 93.739-92.219v-227.781z" />
<glyph unicode="&#xe946;" glyph-name="inbox" d="M640 332.8h128c35.346 0 64 28.654 64 64v320c0 35.346-28.654 64-64 64h-512c-35.346 0-64-28.654-64-64v-320c0-35.346 28.654-64 64-64h128c0-70.692 57.308-128 128-128s128 57.308 128 128zM224 844.8h576c53.019 0 96-42.981 96-96v-576c0-53.019-42.981-96-96-96h-576c-53.019 0-96 42.981-96 96v576c0 53.019 42.981 96 96 96z" />
<glyph unicode="&#xe947;" glyph-name="info--o" d="M512 76.8c-212.077 0-384 171.923-384 384s171.923 384 384 384c212.077 0 384-171.923 384-384 0-101.843-40.457-199.515-112.471-271.529s-169.686-112.471-271.529-112.471zM512 780.8c-176.731 0-320-143.269-320-320s143.269-320 320-320c176.731 0 320 143.269 320 320 0 84.869-33.714 166.263-93.726 226.274s-141.405 93.726-226.274 93.726zM480 652.8h64v-64h-64v64zM480 524.8h64v-288h-64v288z" />
<glyph unicode="&#xe948;" glyph-name="info" d="M512 844.8c-212.077 0-384-171.923-384-384s171.923-384 384-384c212.077 0 384 171.923 384 384s-171.923 384-384 384zM544 236.8h-64v288h64v-288zM544 588.8h-64v64h64v-64z" />
<glyph unicode="&#xe949;" glyph-name="instagram" d="M754.56 844.8c77.542-1.367 140.073-63.898 141.44-141.44v-485.12c0-78.115-63.325-141.44-141.44-141.44h-485.12c-78.115 0-141.44 63.325-141.44 141.44v485.12c0 78.115 63.325 141.44 141.44 141.44h485.12zM512 216.32c135.023 0 244.48 109.457 244.48 244.48s-109.457 244.48-244.48 244.48c-135.023 0-244.48-109.457-244.48-244.48 1.556-134.373 110.107-242.924 244.48-244.48v0zM763.2 652.8c30.643 0.677 55.323 25.357 56 56 0 22.65-13.644 43.070-34.57 51.737s-45.012 3.877-61.028-12.139c-16.016-16.016-20.807-40.102-12.139-61.028s29.087-34.57 51.737-34.57v0zM512 600.32c77.055 0 139.52-62.465 139.52-139.52s-62.465-139.52-139.52-139.52c-77.055 0-139.52 62.465-139.52 139.52 0.176 76.982 62.538 139.344 139.52 139.52z" />
<glyph unicode="&#xe94a;" glyph-name="link" d="M320 76.8c-77.119 0.056-146.721 46.249-176.729 117.291s-14.597 153.144 39.129 208.469l128 128c73.951 75.637 195.15 77.211 271.040 3.52l-44.48-45.76c-24.347 23.699-57.117 36.746-91.091 36.266s-66.362-14.448-90.029-38.826l-128-128c-49.22-50.81-47.93-131.9 2.88-181.12s131.9-47.93 181.12 2.88l111.68 112 45.44-45.44-111.68-111.36c-36.098-36.999-85.589-57.88-137.28-57.92zM576 332.799c-50.007-0.167-98.065 19.379-133.76 54.401l44.48 45.76c24.347-23.699 57.117-36.746 91.091-36.266s66.362 14.448 90.029 38.826l128 128c49.22 50.81 47.93 131.9-2.88 181.12s-131.9 47.93-181.12-2.88l-111.68-112-45.12 45.76 111.68 111.36c73.951 75.637 195.15 77.211 271.040 3.52 75.939-73.897 77.658-195.343 3.84-271.36l-128-128c-36.121-37.196-85.751-58.202-137.6-58.241z" />
<glyph unicode="&#xe94b;" glyph-name="linkedin" d="M826.56 844.8h-629.12c-38.351 0-69.44-31.089-69.44-69.44v-629.12c0-38.351 31.089-69.44 69.44-69.44h629.12c38.351 0 69.44 31.089 69.44 69.44v629.12c0 38.351-31.089 69.44-69.44 69.44zM365.76 181.76c-0.175-11.186-9.293-20.16-20.48-20.16h-85.76c-11.187 0-20.305 8.974-20.48 20.16v360.64c0.175 11.186 9.293 20.16 20.48 20.16h85.76c11.187 0 20.305-8.974 20.48-20.16v-360.64zM301.76 597.76c-33.031 0.261-62.647 20.411-75.017 51.040s-5.054 65.694 18.532 88.821c23.586 23.127 58.788 29.753 89.168 16.784s49.944-42.975 49.557-76.005c0-21.642-8.597-42.397-23.9-57.7s-36.058-23.9-57.7-23.9l-0.64 0.96zM813.76 181.76c0-10.25-8.31-18.56-18.56-18.56h-91.2c-10.25 0-18.56 8.31-18.56 18.56v167.36c0 25.28 7.36 110.72-65.92 110.72-56.96 0-68.48-58.56-70.72-84.48v-195.2c0-10.25-8.31-18.56-18.56-18.56h-88.96c-10.25 0-18.56 8.31-18.56 18.56v363.84c0 10.25 8.31 18.56 18.56 18.56h89.28c10.25 0 18.56-8.31 18.56-18.56v-32c26.374 39.298 72.28 60.835 119.36 56 147.84 0 146.88-138.24 146.88-214.080v-174.4l-1.6 2.24z" />
<glyph unicode="&#xe94c;" glyph-name="lock" d="M320 524.012v128.788c0 106.039 85.961 192 192 192s192-85.961 192-192v-128.788h-64v128.788c0 70.692-57.308 128-128 128s-128-57.308-128-128v-128.788h384v-447.212h-512v447.212h64zM544 309.362c19.13 11.066 32 31.749 32 55.438 0 35.346-28.654 64-64 64s-64-28.654-64-64c0-23.689 12.87-44.372 32-55.438v-136.405h64v136.405z" />
<glyph unicode="&#xe94d;" glyph-name="logout" d="M128 172.8v576c2.568 51.918 44.082 93.432 96 96h224v-64h-224c-16.636-2.284-29.716-15.364-32-32v-576c2.284-16.636 15.364-29.716 32-32h224v-64h-224c-51.918 2.568-93.432 44.082-96 96zM877.28 460.318l-166.4-166.72-45.44 45.44 89.6 89.28h-466.88v64h466.88l-89.6 89.28 45.44 45.44 166.4-166.72z" />
<glyph unicode="&#xe94e;" glyph-name="look-off" d="M320 524.313v128.487c0 106.039 85.961 192 192 192s192-85.961 192-192v-31.672h-64v31.672c0 70.692-57.308 128-128 128s-128-57.308-128-128v-128.487h384v-447.513h-512v447.513h64zM345.28 262.080l110.080-110.080 230.72 230.72-45.12 45.12-185.6-185.28-64.64 64.96-45.44-45.44z" />
<glyph unicode="&#xe94f;" glyph-name="mail--o" d="M768 780.8c34.944 3.667 69.675-8.636 94.52-33.48s37.147-59.576 33.48-94.52v-384c3.667-34.944-8.636-69.675-33.48-94.52s-59.576-37.147-94.52-33.48h-512c-34.944-3.667-69.675 8.636-94.52 33.48s-37.147 59.576-33.48 94.52v384c-3.667 34.944 8.636 69.675 33.48 94.52s59.576 37.147 94.52 33.48h512zM832 609.28v43.52c0 46.080-17.92 64-64 64h-512c-46.080 0-64-17.92-64-64v-384c0-46.080 17.92-64 64-64h512c46.080 0 64 17.92 64 64v340.48zM192 609.28l320-145.28 320 145.28v-70.080l-320-145.6-320 145.6v70.080z" />
<glyph unicode="&#xe950;" glyph-name="mail" d="M768 780.8h-512c-34.944 3.667-69.675-8.636-94.52-33.48s-37.147-59.576-33.48-94.52v-384c-3.667-34.944 8.636-69.675 33.48-94.52s59.576-37.147 94.52-33.48h512c34.944-3.667 69.675 8.636 94.52 33.48s37.147 59.576 33.48 94.52v384c3.667 34.944-8.636 69.675-33.48 94.52s-59.576 37.147-94.52 33.48zM832 539.2l-320-145.6-320 145.6v70.080l320-145.28 320 145.28v-70.080z" />
<glyph unicode="&#xe951;" glyph-name="market--o" d="M768 716.8v64h64v-92.16l72.96-291.84h-72.96v-320h-192v320h-128v-320h-320v320h-72.96l80 320h568.96zM384 844.8h448v-64h-448v64zM704 140.8h64v320h55.040l-48 192h-526.080l-48-192h55.040v-320h192v320h256v-320zM384 780.8h64v-64h-64v64z" />
<glyph unicode="&#xe952;" glyph-name="market" d="M832 688.64l72.96-291.84h-72.96v-320h-192v320h-128v-320h-320v320h-72.96l80 320h568.96v64h64v-92.16zM384 844.8h448v-64h-448v64zM384 780.8h64v-64h-64v64z" />
<glyph unicode="&#xe953;" glyph-name="menu" d="M64 780.8h896v-64h-896v64zM64 492.8h896v-64h-896v64zM64 204.8h896v-64h-896v64z" />
<glyph unicode="&#xe954;" glyph-name="messenger" d="M512 774.4c-178.24 0-320-132.48-320-296.32 3.733-92.662 51.236-178.048 128-230.080v-113.6l102.080 59.84c29.67-8.903 60.549-13.114 91.52-12.48 176.64 0 320 132.48 320 296.32s-146.56 296.32-321.6 296.32zM544 377.28l-82.24 88-159.36-88 173.44 185.92 81.92-88.32 157.44 88.32-171.2-185.92z" />
<glyph unicode="&#xe955;" glyph-name="more-horizontal" d="M512 396.8c-53.019 0-96 42.981-96 96s42.981 96 96 96c53.019 0 96-42.981 96-96s-42.981-96-96-96zM192 396.8c-53.019 0-96 42.981-96 96s42.981 96 96 96c53.019 0 96-42.981 96-96s-42.981-96-96-96zM832 396.8c-53.019 0-96 42.981-96 96s42.981 96 96 96c53.019 0 96-42.981 96-96s-42.981-96-96-96z" />
<glyph unicode="&#xe956;" glyph-name="more-vertical" d="M512 364.8c-53.019 0-96 42.981-96 96s42.981 96 96 96c53.019 0 96-42.981 96-96s-42.981-96-96-96zM512 684.8c-53.019 0-96 42.981-96 96s42.981 96 96 96c53.019 0 96-42.981 96-96s-42.981-96-96-96zM512 44.8c-53.019 0-96 42.981-96 96s42.981 96 96 96c53.019 0 96-42.981 96-96s-42.981-96-96-96z" />
<glyph unicode="&#xe957;" glyph-name="order-by" d="M512 76.8l-256 256h512l-256-256zM512 844.8l256-256h-512l256 256z" />
<glyph unicode="&#xe958;" glyph-name="phone--o" d="M682.88 50.88c-42.661 3.92-81.968 24.783-109.12 57.92l-391.68 391.68c-78.080 78.080-77.12 142.72 3.2 224l113.28 112 176-175.68-68.16-68.16c-22.4-22.4-22.4-22.4 0-43.52l216.32-216.32c12.883-9.707 30.637-9.707 43.52 0l67.84 67.84 175.68-175.68-112.96-112.96c-28.323-34.725-69.325-56.723-113.92-61.12zM298.56 745.92l-67.84-67.84c-55.36-55.040-56-80-3.52-132.16l392-392c52.48-52.48 77.12-51.84 132.48 3.2l67.84 68.16-85.44 85.12-22.72-22.4c-37.609-34.876-95.488-35.705-134.080-1.92l-217.6 217.92c-66.24 66.24-18.56 113.6 0 134.080l24.32 22.72-85.44 85.12z" />
<glyph unicode="&#xe959;" glyph-name="phone" d="M682.88 50.88c-42.661 3.92-81.968 24.783-109.12 57.92l-391.68 391.68c-78.080 78.080-77.12 142.72 3.2 224l113.28 112 176-175.68-68.16-68.16c-22.4-22.4-22.4-22.4 0-43.52l216.32-216.32c12.883-9.707 30.637-9.707 43.52 0l67.84 67.84 175.68-175.68-112.96-112.96c-28.323-34.725-69.325-56.723-113.92-61.12z" />
<glyph unicode="&#xe95a;" glyph-name="pin" d="M512 76.8c-192 206.319-288 363.858-288 472.615 0 163.136 128.942 295.385 288 295.385s288-132.248 288-295.385c0-108.758-96-266.296-288-472.615zM512 428.8c70.692 0 128 57.308 128 128s-57.308 128-128 128c-70.692 0-128-57.308-128-128s57.308-128 128-128z" />
<glyph unicode="&#xe95b;" glyph-name="play--o" d="M192 86.4v748.8l673.92-374.4-673.92-374.4zM256 726.4v-531.2l478.080 265.6-478.080 265.6z" />
<glyph unicode="&#xe95c;" glyph-name="play" d="M192 86.4v748.8l673.92-374.4z" />
<glyph unicode="&#xe95d;" glyph-name="print--o" d="M864 684.8h-96v128h-512v-128h-96c-51.918-2.568-93.432-44.082-96-96v-256c2.568-51.918 44.082-93.432 96-96h96v-128h512v128h96c51.918 2.568 93.432 44.082 96 96v256c-2.568 51.918-44.082 93.432-96 96zM704 172.8h-384v256h384v-256zM896 332.8c-2.284-16.636-15.364-29.716-32-32h-96v192h-512v-192h-96c-16.636 2.284-29.716 15.364-32 32v256c2.284 16.636 15.364 29.716 32 32h160v128h384v-128h160c16.636-2.284 29.716-15.364 32-32v-256z" />
<glyph unicode="&#xe95e;" glyph-name="print" d="M320 396.8h384v-256h-384v256zM864 652.8c51.918-2.568 93.432-44.082 96-96v-256c-2.568-51.918-44.082-93.432-96-96h-96v256h-512v-256h-96c-51.918 2.568-93.432 44.082-96 96v256c2.568 51.918 44.082 93.432 96 96h96v128h512v-128h96z" />
<glyph unicode="&#xe95f;" glyph-name="radio-buttom--selected" d="M512 76.8c-212.077 0-384 171.923-384 384s171.923 384 384 384c212.077 0 384-171.923 384-384 0-101.843-40.457-199.515-112.471-271.529s-169.686-112.471-271.529-112.471zM512 780.8c-176.731 0-320-143.269-320-320s143.269-320 320-320c176.731 0 320 143.269 320 320 0 84.869-33.714 166.263-93.726 226.274s-141.405 93.726-226.274 93.726zM512 236.8c-123.712 0-224 100.288-224 224s100.288 224 224 224c123.712 0 224-100.288 224-224s-100.288-224-224-224z" />
<glyph unicode="&#xe960;" glyph-name="radio-buttom" d="M512 76.8c-212.077 0-384 171.923-384 384s171.923 384 384 384c212.077 0 384-171.923 384-384 0-101.843-40.457-199.515-112.471-271.529s-169.686-112.471-271.529-112.471zM512 780.8c-176.731 0-320-143.269-320-320s143.269-320 320-320c176.731 0 320 143.269 320 320 0 84.869-33.714 166.263-93.726 226.274s-141.405 93.726-226.274 93.726z" />
<glyph unicode="&#xe961;" glyph-name="refresh" d="M511.732 844.8c199.57-0.137 365.769-153.124 382.4-352h97.6l-128-128-128 128h94.4c-14.935 148.912-131.088 267.584-279.646 285.71s-289.837-69.135-340.14-210.088c-50.303-140.952 3.808-297.944 130.276-377.968s291.509-61.704 397.349 44.106l45.44-45.44c-122.919-122.782-312.963-147.737-463.414-60.853s-223.822 263.962-178.913 431.794c44.909 167.832 196.91 284.602 370.647 284.739z" />
<glyph unicode="&#xe962;" glyph-name="reload" d="M512 844.8c-199.57-0.137-365.769-153.124-382.4-352h-97.6l128-128 128 128h-94.4c14.935 148.912 131.088 267.584 279.646 285.71s289.837-69.135 340.14-210.088c50.303-140.952-3.808-297.944-130.276-377.968s-291.509-61.704-397.349 44.106l-45.44-45.44c122.919-122.782 312.963-147.737 463.414-60.853s223.822 263.962 178.913 431.794c-44.909 167.832-196.91 284.602-370.647 284.739z" />
<glyph unicode="&#xe963;" glyph-name="remove--o" d="M128 556.8h768v-192h-768v192zM192 492.8v-64h640v64h-640z" />
<glyph unicode="&#xe964;" glyph-name="remove" d="M192 492.8h640v-64h-640v64z" />
<glyph unicode="&#xe965;" glyph-name="reply" d="M569.28 774.080l185.6-185.28c-203.651 0-337.703 0-402.154 0-96.677 0-159.927-64-159.927-161.849 0-65.233 0-160.183 0-284.849h63.249c0 153.993 0 248.943 0 284.849 0 53.86 45.943 97.849 96.677 97.849 33.823 0 167.874 0 402.154 0l-185.6-185.28 45.44-45.44 262.4 262.72-262.4 262.72-45.44-45.44z" />
<glyph unicode="&#xe966;" glyph-name="robot" d="M384 460.8c-35.346 0-64 28.654-64 64s28.654 64 64 64c35.346 0 64-28.654 64-64s-28.654-64-64-64zM640 460.8c-35.346 0-64 28.654-64 64s28.654 64 64 64c35.346 0 64-28.654 64-64s-28.654-64-64-64zM320 396.8h384v-64h-384v64zM704 652.8h-384c-46.080 0-64-17.92-64-64v-256h-64v256c-3.667 34.944 8.636 69.675 33.48 94.52s59.576 37.147 94.52 33.48h11.2c27.303 76.394 99.674 127.383 180.8 127.383s153.497-50.989 180.8-127.383h11.2c34.944 3.667 69.675-8.636 94.52-33.48s37.147-59.576 33.48-94.52v-256h-64v256c0 46.080-17.92 64-64 64zM401.92 716.8h220.16c-23.058 38.859-64.895 62.682-110.080 62.682s-87.022-23.823-110.080-62.682zM960 44.8h-64v64c0 46.080-17.92 64-64 64h-640c-46.080 0-64-17.92-64-64v-64h-64v64c-3.667 34.944 8.636 69.675 33.48 94.52s59.576 37.147 94.52 33.48h640c34.944 3.667 69.675-8.636 94.52-33.48s37.147-59.576 33.48-94.52v-64z" />
<glyph unicode="&#xe967;" glyph-name="save" d="M256 844.8v-192h320v192h96.697l223.303-225.475v-446.525c0-53.019-42.981-96-96-96h-576c-53.019 0-96 42.981-96 96v576c0 53.019 42.981 96 96 96h32zM512 300.8c70.692 0 128 57.308 128 128s-57.308 128-128 128c-70.692 0-128-57.308-128-128s57.308-128 128-128zM320 844.8h96v-128h-96v128z" />
<glyph unicode="&#xe968;" glyph-name="search" d="M650.341 276.892c-56.868-46.418-128.281-72.092-202.341-72.092-176.731 0-320 143.269-320 320s143.269 320 320 320c176.731 0 320-143.269 320-320 0-74.167-25.747-145.68-72.293-202.587l21.413-21.413h32l160-160-77.44-77.12-160 160v32l-21.339 21.212zM448 268.8c67.895 0 133.010 26.971 181.019 74.981s74.981 113.124 74.981 181.019c0 141.385-114.615 256-256 256s-256-114.615-256-256c0-141.385 114.615-256 256-256z" />
<glyph unicode="&#xe969;" glyph-name="see" d="M512 140.8c-271.68 0-437.12 292.16-443.84 304.32l-8.64 15.68 8.64 15.68c6.72 12.16 172.16 304.32 443.84 304.32s437.12-292.16 443.84-304.32l8.64-15.68-8.64-15.68c-6.72-12.16-172.16-304.32-443.84-304.32zM133.44 460.8c36.8-57.6 177.6-256 378.56-256s341.76 198.4 378.56 256c-36.8 57.6-177.6 256-378.56 256s-341.76-198.4-378.56-256zM512 268.8c-106.039 0-192 85.961-192 192s85.961 192 192 192c106.039 0 192-85.961 192-192s-85.961-192-192-192z" />
<glyph unicode="&#xe96a;" glyph-name="send" d="M126.679 300.8l768.827 543.237-64.506-607.463-219.34 35.461-131.363-194.762-99.251 223.527h-254.366zM758.594 653.62l-326.93-288.966 64.622-160.691 49.901 139.121 212.406 310.535z" />
<glyph unicode="&#xe96b;" glyph-name="settings--o" d="M416 799.55v109.25h192v-109.25c26.627-7.531 51.971-18.117 75.63-31.355l77.271 77.271 135.765-135.765-77.271-77.271c13.238-23.659 23.824-49.003 31.355-75.63h109.25v-192h-109.25c-7.531-26.627-18.117-51.971-31.355-75.63l77.271-77.271-135.765-135.765-77.271 77.271c-23.659-13.238-49.003-23.824-75.63-31.355v-109.25h-192v109.25c-26.627 7.531-51.971 18.117-75.63 31.355l-77.271-77.271-135.765 135.765 77.271 77.271c-13.238 23.659-23.824 49.003-31.355 75.63h-109.25v192h109.25c7.531 26.627 18.117 51.971 31.355 75.63l-77.271 77.271 135.765 135.765 77.271-77.271c23.659 13.238 49.003 23.824 75.63 31.355zM512 332.8c70.692 0 128 57.308 128 128s-57.308 128-128 128c-70.692 0-128-57.308-128-128s57.308-128 128-128zM480 747.042c-55.547-6.14-106.333-28.078-147.766-61.221l-69.136 69.136-45.255-45.255 69.136-69.136c-33.143-41.433-55.081-92.219-61.221-147.766h-97.758v-64h97.758c6.14-55.547 28.078-106.333 61.221-147.766l-69.136-69.136 45.255-45.255 69.136 69.136c41.433-33.143 92.219-55.081 147.766-61.221v-97.758h64v97.758c55.547 6.14 106.333 28.078 147.766 61.221l69.136-69.136 45.255 45.255-69.136 69.136c33.143 41.433 55.081 92.219 61.221 147.766h97.758v64h-97.758c-6.14 55.547-28.078 106.333-61.221 147.766l69.136 69.136-45.255 45.255-69.136-69.136c-41.433 33.143-92.219 55.081-147.766 61.221v97.758h-64v-97.758zM512 268.8c-106.039 0-192 85.961-192 192s85.961 192 192 192c106.039 0 192-85.961 192-192s-85.961-192-192-192z" />
<glyph unicode="&#xe96c;" glyph-name="settings" d="M416 799.55v109.25h192v-109.25c26.627-7.531 51.971-18.117 75.63-31.355l77.271 77.271 135.765-135.765-77.271-77.271c13.238-23.659 23.824-49.003 31.355-75.63h109.25v-192h-109.25c-7.531-26.627-18.117-51.971-31.355-75.63l77.271-77.271-135.765-135.765-77.271 77.271c-23.659-13.238-49.003-23.824-75.63-31.355v-109.25h-192v109.25c-26.627 7.531-51.971 18.117-75.63 31.355l-77.271-77.271-135.765 135.765 77.271 77.271c-13.238 23.659-23.824 49.003-31.355 75.63h-109.25v192h109.25c7.531 26.627 18.117 51.971 31.355 75.63l-77.271 77.271 135.765 135.765 77.271-77.271c23.659 13.238 49.003 23.824 75.63 31.355zM512 268.8c106.039 0 192 85.961 192 192s-85.961 192-192 192c-106.039 0-192-85.961-192-192s85.961-192 192-192z" />
<glyph unicode="&#xe96d;" glyph-name="share" d="M736 268.8c-19.739 0.053-38.994-6.105-55.040-17.6l-301.12 215.36c2.702 8.487 4.104 17.334 4.16 26.24-0.041 5.689-0.577 11.364-1.6 16.96l291.2 166.72c17.298-15.102 39.437-23.504 62.4-23.68 53.019 0 96 42.981 96 96s-42.981 96-96 96c-53.019 0-96-42.981-96-96 0.041-5.689 0.577-11.364 1.6-16.96l-289.6-166.72c-17.713 15.465-40.487 23.891-64 23.68-41.355-0.040-78.037-26.56-91.039-65.818s0.598-82.431 33.754-107.148c33.156-24.718 78.414-25.424 112.325-1.754l301.12-215.040c-2.702-8.487-4.104-17.334-4.16-26.24 0-53.019 42.981-96 96-96s96 42.981 96 96c0 53.019-42.981 96-96 96z" />
<glyph unicode="&#xe96e;" glyph-name="slide-off" d="M704 172.8c-0.348 0-384.696 0-385.043 0-158.578 0.564-286.957 129.29-286.957 288 0 158.683 128.334 287.391 286.874 288 0.375 0 384.75 0 385.126 0 159.058 0 288-128.942 288-288s-128.942-288-288-288zM320 236.8c123.712 0 224 100.288 224 224s-100.288 224-224 224c-123.712 0-224-100.288-224-224s100.288-224 224-224z" />
<glyph unicode="&#xe96f;" glyph-name="slide-on" d="M704 172.8c-0.348 0-384.696 0-385.043 0-158.578 0.564-286.957 129.29-286.957 288 0 158.683 128.334 287.391 286.874 288 0.375 0 384.75 0 385.126 0 159.058 0 288-128.942 288-288s-128.942-288-288-288zM704 236.8c123.712 0 224 100.288 224 224s-100.288 224-224 224c-123.712 0-224-100.288-224-224s100.288-224 224-224z" />
<glyph unicode="&#xe970;" glyph-name="star--half" d="M512 182.299l-296.64-175.899 78.72 331.52-262.080 223.057 345.12 28.766 134.88 312.657 134.88-312.657 345.12-28.766-262.080-223.057 78.72-331.52-296.64 175.899zM512 253.76l201.291-119.36-53.417 224.96 177.84 151.36-234.189 19.52-91.526 212.16v-488.64z" />
<glyph unicode="&#xe971;" glyph-name="star--o" d="M512 182.299l-296.64-175.899 78.72 331.52-262.080 223.057 345.12 28.766 134.88 312.657 134.88-312.657 345.12-28.766-262.080-223.057 78.72-331.52-296.64 175.899zM512 253.76l201.291-119.36-53.417 224.96 177.84 151.36-234.189 19.52-91.526 212.16-91.526-212.16-234.189-19.52 177.84-151.36-53.417-224.96 201.291 119.36z" />
<glyph unicode="&#xe972;" glyph-name="star" d="M512 182.299l296.64-175.899-78.72 331.52 262.080 223.057-345.12 28.766-134.88 312.657-134.88-312.657-345.12-28.766 262.080-223.057-78.72-331.52z" />
<glyph unicode="&#xe973;" glyph-name="stop--o" d="M448 140.8h-192v640h192v-640zM320 204.8h64v512h-64v-512zM768 140.8h-192v640h192v-640zM640 204.8h64v512h-64v-512z" />
<glyph unicode="&#xe974;" glyph-name="stop" d="M448 140.8h-192v640h192v-640zM768 140.8h-192v640h192v-640z" />
<glyph unicode="&#xe975;" glyph-name="tag--o" d="M443.52 12.8l-379.52 379.52 451.2 452.48h380.8v-380.8l-452.48-451.2zM153.28 392.32l290.24-290.24 388.48 388.48v290.24h-290.24l-388.48-388.48zM640 460.8c-61.063 0.048-113.589 43.222-125.458 103.12s20.224 119.84 76.655 143.169c56.43 23.33 121.482 3.551 155.376-47.242s27.19-118.454-16.012-161.608c-24.025-23.999-56.602-37.467-90.56-37.44zM640 652.8c-16.946-0.071-33.173-6.861-45.12-18.88-12.019-11.947-18.809-28.174-18.88-45.12 0-35.346 28.654-64 64-64s64 28.654 64 64c0 35.346-28.654 64-64 64z" />
<glyph unicode="&#xe976;" glyph-name="tag" d="M443.52 12.8l-379.52 379.52 451.2 452.48h380.8v-380.8l-452.48-451.2zM640 460.8c33.958-0.027 66.535 13.442 90.56 37.44 43.202 43.154 49.906 110.815 16.012 161.608s-98.946 70.572-155.376 47.242c-56.43-23.33-88.524-83.271-76.655-143.169s64.395-103.072 125.458-103.12z" />
<glyph unicode="&#xe977;" glyph-name="thumb-down--o" d="M496 12.8h-80c-51.918 2.568-93.432 44.082-96 96 10.537 54.934 26.951 108.576 48.96 160h-144.96c-51.918 2.568-93.432 44.082-96 96 16.333 89.348 37.7 177.702 64 264.64l2.24 5.76c24.309 47.734 72.263 78.849 125.76 81.6h288c51.918-2.568 93.432-44.082 96-96v-330.56l-208-277.44zM253.76 608.64c-29.76-105.92-61.76-224.96-61.76-243.84 2.284-16.636 15.364-29.716 32-32h239.36l-17.6-43.84c-25.172-58.382-45.82-118.613-61.76-180.16 2.284-16.636 15.364-29.716 32-32h48l176 234.56v309.44c-2.284 16.636-15.364 29.716-32 32h-288c-28.008-2.905-52.786-19.424-66.24-44.16zM896 204.8h-32c-51.918 2.568-93.432 44.082-96 96v320c2.568 51.918 44.082 93.432 96 96h32v-64h-32c-16.636-2.284-29.716-15.364-32-32v-320c2.284-16.636 15.364-29.716 32-32h32v-64z" />
<glyph unicode="&#xe978;" glyph-name="thumb-down" d="M496 12.8h-16c-51.918 2.568-93.432 44.082-96 96 10.537 54.934 26.951 108.576 48.96 160h-208.96c-51.918 2.568-93.432 44.082-96 96 16.333 89.348 37.7 177.702 64 264.64l2.24 5.76c24.309 47.734 72.263 78.849 125.76 81.6h288c51.918-2.568 93.432-44.082 96-96v-330.56l-208-277.44zM896 204.8h-32c-51.918 2.568-93.432 44.082-96 96v320c2.568 51.918 44.082 93.432 96 96h32v-512z" />
<glyph unicode="&#xe979;" glyph-name="thumb-up--o" d="M704 204.8h-288c-51.918 2.568-93.432 44.082-96 96v330.56l208 277.44h80c51.918-2.568 93.432-44.082 96-96-10.537-54.934-26.951-108.576-48.96-160h144.96c51.918-2.568 93.432-44.082 96-96-16.333-89.348-37.7-177.702-64-264.64l-2.24-5.76c-24.309-47.734-72.263-78.849-125.76-81.6zM384 610.24v-309.44c2.284-16.636 15.364-29.716 32-32h288c28.008 2.905 52.786 19.424 66.24 44.16 29.76 105.92 61.76 224.96 61.76 243.84-2.284 16.636-15.364 29.716-32 32h-239.36l17.6 43.84c25.172 58.382 45.82 118.613 61.76 180.16-2.284 16.636-15.364 29.716-32 32h-48l-176-234.56zM160 204.8h-32v64h32c16.636 2.284 29.716 15.364 32 32v320c-2.284 16.636-15.364 29.716-32 32h-32v64h32c51.918-2.568 93.432-44.082 96-96v-320c-2.568-51.918-44.082-93.432-96-96z" />
<glyph unicode="&#xe97a;" glyph-name="thumb-up" d="M704 204.8h-288c-51.918 2.568-93.432 44.082-96 96v330.56l208 277.44h16c51.918-2.568 93.432-44.082 96-96-10.537-54.934-26.951-108.576-48.96-160h208.96c51.918-2.568 93.432-44.082 96-96-16.333-89.348-37.7-177.702-64-264.64l-2.24-5.76c-24.309-47.734-72.263-78.849-125.76-81.6zM128 204.8v512h32c51.918-2.568 93.432-44.082 96-96v-320c-2.568-51.918-44.082-93.432-96-96h-32z" />
<glyph unicode="&#xe97b;" glyph-name="trash--o" d="M704 716.8h160v-64h-704v64h160v32c2.568 51.918 44.082 93.432 96 96h192c51.918-2.568 93.432-44.082 96-96v-32zM384 716.8h256v32c-2.284 16.636-15.364 29.716-32 32h-192c-16.636-2.284-29.716-15.364-32-32v-32zM704 76.8h-384c-34.37-0.028-62.625 27.097-64 61.44l-64 418.56v32h64v-29.76l64-418.24h384v4.16l64 414.080v29.76h64v-36.16l-64-414.4c-1.375-34.343-29.63-61.468-64-61.44zM384 556.8h64v-320h-64v320zM576 556.8h64v-320h-64v320z" />
<glyph unicode="&#xe97c;" glyph-name="trash" d="M704 716.8v32c-2.568 51.918-44.082 93.432-96 96h-192c-51.918-2.568-93.432-44.082-96-96v-32h-160v-64h32v-32l64-482.56c1.375-34.343 29.63-61.468 64-61.44h384c34.37-0.028 62.625 27.097 64 61.44l64 478.4v36.16h32v64h-160zM448 236.8h-64v320h64v-320zM640 236.8h-64v320h64v-320zM640 716.8h-256v32c2.284 16.636 15.364 29.716 32 32h192c16.636-2.284 29.716-15.364 32-32v-32z" />
<glyph unicode="&#xe97d;" glyph-name="twitter" d="M813.12 609.6v-18.24c0.865-118.454-45.897-232.288-129.779-315.93s-197.85-130.075-316.301-128.87c-84.417 1.022-166.996 24.79-239.040 68.8h36.8c70.279-1.434 138.626 23.057 192 68.8-68.136-0.274-128.202 44.645-147.2 110.080 8.96 0 18.24-4.48 27.52-4.48 13.911-0.729 27.849 0.783 41.28 4.48-72.622 13.657-124.967 77.469-124.16 151.36v0c21.054-12.604 45.227-19.035 69.76-18.56-40.289 30.217-64 77.639-64 128 0.447 27.491 8.296 54.353 22.72 77.76 79.75-97.32 196.352-157.128 321.92-165.12-3.971 11.837-5.495 24.357-4.48 36.8-0.26 41.522 16.164 81.409 45.585 110.709s69.375 45.561 110.895 45.131c43.798 0.861 85.778-17.497 114.88-50.24 35.288 7.224 69.347 19.511 101.12 36.48-12.184-36.093-36.496-66.85-68.8-87.040 31.255 5.643 62.056 13.557 92.16 23.68-25.528-26.799-53.251-51.418-82.88-73.6z" />
<glyph unicode="&#xe97e;" glyph-name="upload" d="M800 76.8h-576c-51.918 2.568-93.432 44.082-96 96v96h64v-96c2.284-16.636 15.364-29.716 32-32h576c16.636 2.284 29.716 15.364 32 32v96h64v-96c-2.568-51.918-44.082-93.432-96-96zM480 722.56l-185.28-185.6-45.44 45.44 262.72 262.4 262.72-262.4-45.44-45.44-185.28 185.6v-517.689h-64v517.689z" />
<glyph unicode="&#xe97f;" glyph-name="user--o" d="M512 460.8c-106.039 0-192 85.961-192 192s85.961 192 192 192c106.039 0 192-85.961 192-192 0-50.922-20.229-99.758-56.235-135.765s-84.843-56.235-135.765-56.235zM512 780.8c-70.692 0-128-57.308-128-128s57.308-128 128-128c70.692 0 128 57.308 128 128 0 33.948-13.486 66.505-37.49 90.51s-56.562 37.49-90.51 37.49zM832 76.8h-64v64c0 141.385-114.615 256-256 256s-256-114.615-256-256v-64h-64v64c0 176.731 143.269 320 320 320s320-143.269 320-320v-64z" />
<glyph unicode="&#xe980;" glyph-name="user" d="M512 460.8c-106.039 0-192 85.961-192 192s85.961 192 192 192c106.039 0 192-85.961 192-192 0-50.922-20.229-99.758-56.235-135.765s-84.843-56.235-135.765-56.235zM832 76.8h-640v64c0 176.731 143.269 320 320 320s320-143.269 320-320v-64z" />
<glyph unicode="&#xe981;" glyph-name="volume-down--o" d="M576 95.68l-237.12 237.12h-146.88v256h146.88l237.12 237.12v-730.24zM256 396.8h109.12l146.88-146.88v421.76l-146.88-146.88h-109.12v-128zM640 268.8v64c70.692 0 128 57.308 128 128s-57.308 128-128 128v64c106.039 0 192-85.961 192-192s-85.961-192-192-192z" />
<glyph unicode="&#xe982;" glyph-name="volume-down" d="M576 95.68l-237.12 237.12h-146.88v256h146.88l237.12 237.12v-730.24zM640 268.8v64c70.692 0 128 57.308 128 128s-57.308 128-128 128v64c106.039 0 192-85.961 192-192s-85.961-192-192-192z" />
<glyph unicode="&#xe983;" glyph-name="volume-mute--o" d="M704 95.68l-237.12 237.12h-146.88v256h146.88l237.12 237.12v-730.24zM384 396.8h109.12l146.88-146.88v421.76l-146.88-146.88h-109.12v-128z" />
<glyph unicode="&#xe984;" glyph-name="volume-mute" d="M704 95.68l-237.12 237.12h-146.88v256h146.88l237.12 237.12z" />
<glyph unicode="&#xe985;" glyph-name="volume-off--o" d="M640 447.68l64 64v-480l-240 240 45.12 45.12 130.88-130.88v261.76zM841.28 835.52l45.44-45.44-704-704-45.44 45.44 201.6 201.28h-146.88v256h210.88l301.12 301.12v-192l137.28 137.6zM256 396.8h146.88l237.12 237.12v101.76l-210.88-210.88h-173.12v-128z" />
<glyph unicode="&#xe986;" glyph-name="volume-off" d="M704 511.68v-480l-240 240 240 240zM841.28 835.52l45.44-45.44-704-704-45.44 45.44 201.6 201.28h-146.88v256h210.88l301.12 301.12v-192l137.28 137.6z" />
<glyph unicode="&#xe987;" glyph-name="volume-up--o" d="M512 95.68l-237.12 237.12h-146.88v256h146.88l237.12 237.12v-730.24zM192 396.8h109.12l146.88-146.88v421.76l-146.88-146.88h-109.12v-128zM576 140.8v64c141.385 0 256 114.615 256 256s-114.615 256-256 256v64c176.731 0 320-143.269 320-320s-143.269-320-320-320zM576 268.8v64c70.692 0 128 57.308 128 128s-57.308 128-128 128v64c106.039 0 192-85.961 192-192s-85.961-192-192-192z" />
<glyph unicode="&#xe988;" glyph-name="volume-up" d="M512 95.68l-237.12 237.12h-146.88v256h146.88l237.12 237.12v-730.24zM576 140.8v64c141.385 0 256 114.615 256 256s-114.615 256-256 256v64c176.731 0 320-143.269 320-320s-143.269-320-320-320zM576 268.8v64c70.692 0 128 57.308 128 128s-57.308 128-128 128v64c106.039 0 192-85.961 192-192s-85.961-192-192-192z" />
<glyph unicode="&#xe989;" glyph-name="whatsapp" d="M896 470.72c-0.339-99.608-40.255-194.996-110.958-265.159s-166.395-109.346-266.002-108.921c-63.728-0.066-126.45 15.89-182.4 46.4l-208.64-66.24 68.16 200.64c-35.344 57.807-54.057 124.244-54.080 192 0 208.189 168.771 376.96 376.96 376.96s376.96-168.771 376.96-376.96v1.28zM519.040 785.282c-174.362 0.53-316.238-140.201-317.12-314.562-0.072-66.327 21.126-130.93 60.48-184.32l-38.4-116.8 121.92 38.72c112.228-76.163 260.594-71.994 368.367 10.352s150.784 224.402 106.79 352.7c-43.995 128.298-165.13 214.066-300.757 212.948l-1.28 0.962zM711.040 384.64c-2.56 3.84-8.64 6.080-17.92 10.56s-54.72 26.88-64 29.76c-9.28 2.88-14.72 4.8-20.8-4.48s-24-29.76-29.12-35.84c-5.12-6.080-10.88-7.040-20.16-2.56-27.477 11.121-52.813 26.929-74.88 46.72-20.265 18.648-37.63 40.22-51.52 64-5.44 9.28 0 14.080 4.16 18.56s9.28 10.88 13.76 16.32c3.87 4.491 7.002 9.567 9.28 15.040 2.731 5.097 2.731 11.223 0 16.32-2.56 4.48-20.8 49.6-28.48 67.84s-15.68 15.36-20.8 15.36c-5.12 0-11.84 0-17.92 0-9.417-0.419-18.281-4.563-24.64-11.52-20.871-19.911-32.473-47.638-32-76.48 2.997-34.988 16.118-68.346 37.76-96 38.516-60.020 93.202-107.94 157.76-138.24 94.080-36.8 94.080-24.64 111.040-23.040 25.733 5.324 48.036 21.237 61.44 43.84 5.996 13.785 7.885 29.008 5.44 43.84h1.6z" />
<glyph unicode="&#xe98a;" glyph-name="youtube" d="M859.2 668.48c-21.12 34.56-42.56 41.28-88.96 44.8s-160.64 3.52-260.48 3.52c-99.84 0-217.6 0-260.48-3.52s-71.36-10.24-89.28-44.8c-17.92-34.56-32-96-32-207.68v0c0-107.2 10.56-169.6 32-207.68s42.88-41.28 89.28-44.8c46.4-3.52 160-3.52 260.48-3.52s214.080 0 260.48 3.52c46.4 3.52 67.84 10.24 88.96 44.8s32 96 32 207.68v0c4.8 107.2-10.56 169.6-32 207.68zM405.76 332.8v256l243.2-128-243.2-128z" />
<glyph unicode="&#xe98b;" glyph-name="zoom-in" d="M641.094 377.141l12.026-12.341h32l224-224-77.44-77.12-224 224v32l-11.908 12.116c-50.794-40.585-114.128-62.996-179.772-62.996-159.058 0-288 128.942-288 288s128.942 288 288 288c159.058 0 288-128.942 288-288 0-65.596-22.378-128.884-62.906-179.659zM416 332.8c59.408 0 116.384 23.6 158.392 65.608s65.608 98.983 65.608 158.392c0 123.712-100.288 224-224 224s-224-100.288-224-224c0-123.712 100.288-224 224-224zM576 588.8v-64h-128v-128h-64v128h-128v64h128v128h64v-128h128z" />
<glyph unicode="&#xe98c;" glyph-name="zoom-out" d="M641.094 377.141l12.026-12.341h32l224-224-77.44-77.12-224 224v32l-11.908 12.116c-50.794-40.585-114.128-62.996-179.772-62.996-159.058 0-288 128.942-288 288s128.942 288 288 288c159.058 0 288-128.942 288-288 0-65.596-22.378-128.884-62.906-179.659zM416 332.8c59.408 0 116.384 23.6 158.392 65.608s65.608 98.983 65.608 158.392c0 123.712-100.288 224-224 224s-224-100.288-224-224c0-123.712 100.288-224 224-224zM256 588.8h320v-64h-320v64z" />
</font>
</defs>
</svg>
